<?xml version="1.0" standalone="no"?>
<!DOCTYPE svg PUBLIC "-//W3C//DTD SVG 1.1//EN" "http://www.w3.org/Graphics/SVG/1.1/DTD/svg11.dtd" >
<svg xmlns="http://www.w3.org/2000/svg">
<metadata></metadata>
<defs>
<font id="humnst777_blk_btblack" horiz-adv-x="1024" >
<font-face units-per-em="2048" ascent="1638" descent="-410" />
<missing-glyph horiz-adv-x="631" />
<glyph horiz-adv-x="2048" />
<glyph horiz-adv-x="2048" />
<glyph unicode="&#xd;" horiz-adv-x="631" />
<glyph unicode=" "  horiz-adv-x="631" />
<glyph unicode="&#x09;" horiz-adv-x="631" />
<glyph unicode="&#xa0;" horiz-adv-x="631" />
<glyph unicode="!" horiz-adv-x="877" d="M252 1421h373l-56 -948h-262zM270 0v315h334v-315h-334z" />
<glyph unicode="&#x22;" horiz-adv-x="713" d="M76 877v561h219v-561h-219zM416 877v561h223v-561h-223z" />
<glyph unicode="#" horiz-adv-x="1575" d="M23 381l86 231h270l82 230h-283l86 231h279l141 393h250l-139 -393h235l141 393h250l-139 -393h270l-86 -231h-268l-80 -230h277l-84 -231h-275l-141 -393h-250l139 393h-235l-141 -393h-250l139 393h-274zM625 610h245l82 232h-245z" />
<glyph unicode="$" horiz-adv-x="1262" d="M123 1018q0 178 122 285t349 127v165h113v-163q94 -2 189 -15.5t189 -38.5l-26 -260q-77 36 -160.5 54t-175.5 18h-16v-305q246 -50 364.5 -157t118.5 -279q0 -186 -131 -304.5t-365 -142.5v-174h-114v172h-25q-108 0 -206 12.5t-189 38.5l26 291q94 -39 192.5 -59.5 t200.5 -22.5l1 338q-232 42 -344.5 145t-112.5 275zM442 1042q0 -54 37 -87.5t115 -49.5v279q-72 -11 -112 -48t-40 -94zM694 267q79 4 121.5 43.5t42.5 107.5q0 62 -39.5 100.5t-124.5 59.5v-311z" />
<glyph unicode="%" horiz-adv-x="1944" d="M74 1038q0 192 97 305t261 113t261.5 -113t97.5 -305q0 -191 -97.5 -304t-261.5 -113q-163 0 -260.5 113t-97.5 304zM332 1038q0 -132 22.5 -185.5t75.5 -53.5t75.5 53.5t22.5 185.5q0 133 -22 186.5t-74 53.5q-53 0 -76.5 -56t-23.5 -184zM489 -33l752 1489h211 l-750 -1489h-213zM1151 383q0 192 98 305t262 113q165 0 262 -113t97 -305q0 -191 -97.5 -303.5t-261.5 -112.5q-163 0 -261.5 113.5t-98.5 302.5zM1411 383q0 -131 22.5 -184.5t75.5 -53.5q54 0 76.5 53.5t22.5 184.5t-23 185.5t-76 54.5q-52 0 -75 -55t-23 -185z" />
<glyph unicode="&#x26;" horiz-adv-x="1575" d="M104 422q0 116 68 208t201 156q-89 88 -129.5 165t-40.5 157q0 159 128.5 252.5t350.5 93.5q219 0 343 -91.5t124 -252.5q0 -122 -81 -219t-237 -164l250 -252q54 62 84 137.5t34 157.5h298q-6 -150 -60.5 -276t-154.5 -220l274 -274h-397l-96 102q-86 -64 -191 -96.5 t-229 -32.5q-247 0 -393 121.5t-146 327.5zM444 420q0 -85 67 -146t159 -61q59 0 109 17.5t98 56.5l-320 319q-58 -44 -85.5 -89t-27.5 -97zM526 1100q0 -44 35.5 -96.5t104.5 -110.5q89 45 132.5 93.5t43.5 103.5q0 60 -43.5 96.5t-116.5 36.5q-69 0 -112.5 -35t-43.5 -88z " />
<glyph unicode="'" horiz-adv-x="371" d="M76 877v561h219v-561h-219z" />
<glyph unicode="(" horiz-adv-x="797" d="M139 637q0 250 83.5 477t250.5 432h266q-143 -216 -213.5 -441.5t-70.5 -467.5t70.5 -466.5t213.5 -440.5h-266q-167 205 -250.5 431.5t-83.5 475.5z" />
<glyph unicode=")" horiz-adv-x="797" d="M57 -270q143 214 213 439.5t70 467.5q0 243 -70.5 469.5t-212.5 439.5h265q168 -206 251.5 -433.5t83.5 -475.5t-83.5 -474.5t-251.5 -432.5h-265z" />
<glyph unicode="*" d="M66 1118l75 238l316 -172l-72 350h254l-70 -350l314 172l75 -238l-354 -45l260 -246l-200 -145l-152 330l-152 -330l-200 145l260 246z" />
<glyph unicode="+" horiz-adv-x="1706" d="M254 496v231h481v494h238v-494h479v-231h-479v-496h-238v496h-481z" />
<glyph unicode="," horiz-adv-x="631" d="M51 -223l131 547h340l-200 -547h-271z" />
<glyph unicode="-" horiz-adv-x="692" d="M72 459v270h546v-270h-546z" />
<glyph unicode="." horiz-adv-x="631" d="M147 0v326h334v-326h-334z" />
<glyph unicode="/" horiz-adv-x="569" d="M-98 -190l491 1646h225l-497 -1646h-219z" />
<glyph unicode="0" horiz-adv-x="1262" d="M88 711q0 367 138 556t405 189t405 -188.5t138 -556.5t-137 -556t-406 -188q-268 0 -405.5 188t-137.5 556zM442 715q0 -254 46 -373t143 -119q95 0 140.5 119.5t45.5 372.5q0 252 -45 370.5t-141 118.5q-97 0 -143 -119t-46 -370z" />
<glyph unicode="1" horiz-adv-x="1262" d="M127 1104l483 317h295v-1421h-346v1038l-264 -180z" />
<glyph unicode="2" horiz-adv-x="1262" d="M123 0v274q336 274 478 439t142 276q0 85 -55.5 136t-148.5 51q-80 0 -171 -25.5t-198 -77.5l-10 293q117 44 235 66t238 22q216 0 351.5 -118t135.5 -304q0 -161 -131.5 -345.5t-415.5 -420.5h566v-266h-1016z" />
<glyph unicode="3" horiz-adv-x="1262" d="M96 37l21 295q77 -38 161 -57t175 -19q140 0 219.5 49.5t79.5 134.5q0 78 -60.5 119t-175.5 41h-176v250h162q107 0 173 44t66 114q0 74 -67 118.5t-180 44.5q-82 0 -166 -16t-168 -47l-17 264q105 31 212.5 46.5t219.5 15.5q248 0 385.5 -102t137.5 -283 q0 -116 -65.5 -194.5t-192.5 -115.5q140 -36 212 -120t72 -209q0 -195 -174.5 -308.5t-478.5 -113.5q-94 0 -187.5 12t-187.5 37z" />
<glyph unicode="4" horiz-adv-x="1262" d="M55 274v314l563 833h420v-891h193v-256h-193v-274h-346v274h-637zM313 530h379l19 623z" />
<glyph unicode="5" horiz-adv-x="1262" d="M152 43v303q81 -42 168 -63t176 -21q129 0 207.5 57.5t78.5 149.5q0 106 -83.5 164.5t-235.5 58.5q-67 0 -140 -9t-155 -28l8 766h918v-254h-588l-6 -239q42 5 76 7.5t63 2.5q236 0 374 -123.5t138 -333.5q0 -225 -164 -359t-442 -134q-113 0 -209.5 13.5t-183.5 41.5z " />
<glyph unicode="6" horiz-adv-x="1262" d="M115 678q0 375 168.5 571.5t490.5 196.5q84 0 167.5 -15t170.5 -45l-29 -280q-66 39 -140.5 59.5t-151.5 20.5q-167 0 -251 -103t-85 -308q56 70 131.5 105t169.5 35q187 0 307.5 -128.5t120.5 -329.5q0 -217 -141 -353.5t-365 -136.5q-271 0 -417 184.5t-146 526.5z M475 434q0 -96 49 -156.5t127 -60.5q84 0 131 57t47 158q0 98 -48 158.5t-126 60.5q-76 0 -128 -61.5t-52 -155.5z" />
<glyph unicode="7" horiz-adv-x="1262" d="M88 1157v264h1014v-301l-506 -1120h-403l548 1157h-653z" />
<glyph unicode="8" horiz-adv-x="1262" d="M84 381q0 134 75.5 226.5t213.5 127.5q-123 49 -184.5 133t-61.5 201q0 174 139 279.5t371 105.5q233 0 365.5 -101.5t132.5 -279.5q0 -107 -63 -190.5t-177 -128.5q140 -54 211.5 -145t71.5 -218q0 -192 -148 -308t-397 -116q-250 0 -399.5 114t-149.5 300zM428 408 q0 -81 57 -136t142 -55q84 0 140 55.5t56 139.5q0 70 -52 124t-157 91q-90 -38 -138 -94.5t-48 -124.5zM457 1053q0 -72 49 -124.5t139 -76.5q86 41 125 90.5t39 116.5t-49.5 111t-126.5 44t-126.5 -45.5t-49.5 -115.5z" />
<glyph unicode="9" horiz-adv-x="1262" d="M92 965q0 217 141 354t365 137q270 0 416.5 -185t146.5 -528q0 -374 -168.5 -570t-490.5 -196q-83 0 -166 15t-170 45l27 280q66 -39 140.5 -59t151.5 -20q168 0 251.5 102t84.5 307q-56 -70 -131 -104.5t-170 -34.5q-187 0 -307.5 128.5t-120.5 328.5zM446 991 q0 -97 48.5 -158t126.5 -61q77 0 128.5 61t51.5 154q0 97 -50 158t-126 61q-84 0 -131.5 -56.5t-47.5 -158.5z" />
<glyph unicode=":" horiz-adv-x="631" d="M147 0v326h334v-326h-334zM147 727v326h334v-326h-334z" />
<glyph unicode=";" horiz-adv-x="631" d="M51 -223l131 547h340l-200 -547h-271zM170 727v326h334v-326h-334z" />
<glyph unicode="&#x3c;" horiz-adv-x="1706" d="M264 494v233l1178 487v-253l-854 -351l854 -348v-254z" />
<glyph unicode="=" horiz-adv-x="1706" d="M254 272v230h1198v-230h-1198zM254 719v231h1198v-231h-1198z" />
<glyph unicode="&#x3e;" horiz-adv-x="1706" d="M264 8v254l854 348l-854 351v253l1178 -487v-233z" />
<glyph unicode="?" horiz-adv-x="1141" d="M98 1399q105 29 212.5 43t219.5 14q225 0 354.5 -94.5t129.5 -257.5q0 -59 -19.5 -116t-56.5 -107q-42 -59 -106.5 -131t-79.5 -93q-36 -51 -52 -92t-16 -82v-14h-293q0 6 -1 18.5t-1 18.5q0 64 20 120.5t62 110.5q22 29 63 79q117 141 117 218q0 76 -57.5 119t-159.5 43 q-74 0 -153.5 -17t-169.5 -53zM362 0v315h334v-315h-334z" />
<glyph unicode="@" horiz-adv-x="2048" d="M82 520q0 169 53 320.5t156 277.5q148 183 359.5 278t467.5 95q170 0 320 -46t260 -132q136 -107 203 -243t67 -306q0 -167 -65.5 -307t-190.5 -240q-69 -56 -154 -85.5t-176 -29.5q-106 0 -161 40t-60 120q-56 -82 -126.5 -120t-168.5 -38q-163 0 -247 87.5t-84 257.5 q0 241 141.5 404t349.5 163q77 0 134 -30.5t95 -92.5l52 92h206l-153 -610q0 -2 -1 -6q-3 -18 -3 -27q0 -30 16 -44.5t47 -14.5q137 0 240.5 143.5t103.5 335.5q0 239 -179.5 390t-467.5 151q-148 0 -274 -36.5t-230 -109.5q-155 -110 -239 -274.5t-84 -356.5 q0 -302 203 -481.5t544 -179.5q164 0 316 47.5t280 138.5l97 -135q-156 -117 -329 -175t-364 -58q-192 0 -354.5 49t-288.5 145q-157 122 -234 281.5t-77 361.5zM778 444q0 -83 35 -128.5t98 -45.5q84 0 148 59t88 158l51 209q-9 76 -50 116t-110 40q-103 0 -181.5 -121.5 t-78.5 -286.5z" />
<glyph unicode="A" horiz-adv-x="1446" d="M-35 0l539 1421h457l538 -1421h-405l-101 301h-547l-106 -301h-375zM541 571h362l-178 533z" />
<glyph unicode="B" horiz-adv-x="1360" d="M137 0v1421h582q258 0 388 -92.5t130 -275.5q0 -123 -68 -204.5t-198 -117.5q146 -27 224.5 -114.5t78.5 -223.5q0 -200 -143 -296.5t-441 -96.5h-553zM508 262h149q116 0 176 43.5t60 126.5q0 82 -55 123t-164 41h-166v-334zM508 848h115q120 0 179.5 40.5t59.5 123.5 q0 75 -56 114t-165 39h-133v-317z" />
<glyph unicode="C" horiz-adv-x="1399" d="M86 719q0 339 213 538t578 199q122 0 231.5 -19.5t202.5 -58.5l-33 -297q-80 48 -165 71.5t-175 23.5q-213 0 -339 -124t-126 -333q0 -210 128.5 -334.5t342.5 -124.5q84 0 171.5 20.5t176.5 61.5l23 -319q-102 -28 -204 -42t-206 -14q-387 0 -603 198.5t-216 553.5z" />
<glyph unicode="D" horiz-adv-x="1561" d="M137 0v1421h498q195 0 326.5 -24.5t214.5 -75.5q155 -99 234 -250.5t79 -351.5q0 -220 -82.5 -374t-251.5 -253q-84 -48 -215 -70t-352 -22h-451zM518 285h164q200 0 309 113t109 321q0 206 -113.5 317t-324.5 111h-144v-862z" />
<glyph unicode="E" horiz-adv-x="1251" d="M137 0v1421h987v-266h-608v-287h574v-270h-574v-324h631v-274h-1010z" />
<glyph unicode="F" horiz-adv-x="1143" d="M137 0v1421h936v-270h-555v-303h531v-270h-531v-578h-381z" />
<glyph unicode="G" horiz-adv-x="1554" d="M96 700q0 359 218.5 558.5t613.5 199.5q118 0 234.5 -17.5t230.5 -51.5l-33 -295q-87 49 -182 73.5t-195 24.5q-233 0 -367.5 -129t-134.5 -352q0 -215 120 -342t323 -127q43 0 79 4t68 12v297h-219v268h571v-792q-112 -32 -233 -48t-248 -16q-415 0 -630.5 187 t-215.5 546z" />
<glyph unicode="H" horiz-adv-x="1475" d="M137 0v1421h379v-542h442v542h379v-1421h-379v594h-442v-594h-379z" />
<glyph unicode="I" horiz-adv-x="653" d="M137 0v1421h379v-1421h-379z" />
<glyph unicode="J" horiz-adv-x="905" d="M29 4v311q30 -12 60.5 -18t60.5 -6q128 0 182.5 74.5t54.5 257.5v798h379v-893q0 -288 -118.5 -424.5t-368.5 -136.5q-65 0 -128 9.5t-122 27.5z" />
<glyph unicode="K" horiz-adv-x="1399" d="M137 0v1421h379v-614l440 614h424l-522 -653l576 -768h-471l-447 659v-659h-379z" />
<glyph unicode="L" horiz-adv-x="1128" d="M137 0v1421h379v-1140h571v-281h-950z" />
<glyph unicode="M" horiz-adv-x="2021" d="M137 0v1421h578l260 -854q15 -51 24.5 -114.5t14.5 -136.5q7 79 18 145.5t25 113.5l260 846h569v-1421h-356v954q0 68 4 141t12 156q-14 -64 -29 -122.5t-32 -110.5l-320 -1018h-340l-313 1001q-16 52 -31 115.5t-28 134.5q7 -101 11.5 -181.5t4.5 -121.5v-948h-332z" />
<glyph unicode="N" horiz-adv-x="1575" d="M137 0v1421h473l412 -852q21 -43 49 -119.5t62 -187.5q-18 105 -26.5 193t-8.5 161v805h342v-1421h-471l-428 883q-30 61 -55 132.5t-46 155.5q20 -127 29.5 -233.5t9.5 -187.5v-750h-342z" />
<glyph unicode="O" horiz-adv-x="1583" d="M86 711q0 350 187.5 547.5t519.5 197.5q331 0 517.5 -197.5t186.5 -547.5q0 -351 -186.5 -547.5t-517.5 -196.5q-333 0 -520 196.5t-187 547.5zM467 715q0 -213 89 -340t237 -127q147 0 235 126.5t88 340.5q0 211 -88.5 338t-234.5 127q-147 0 -236.5 -126.5 t-89.5 -338.5z" />
<glyph unicode="P" horiz-adv-x="1276" d="M137 0v1421h508q298 0 441 -110.5t143 -341.5q0 -232 -141 -352.5t-410 -120.5h-162v-496h-379zM516 752h100q114 0 172 50t58 148q0 106 -58 160.5t-170 54.5h-102v-413z" />
<glyph unicode="Q" horiz-adv-x="1583" d="M86 711q0 350 187.5 547.5t519.5 197.5q331 0 517.5 -197.5t186.5 -547.5q0 -238 -84.5 -402t-257.5 -260l318 -317h-418l-213 237h-41q-341 0 -528 193.5t-187 548.5zM467 715q0 -213 89 -340t237 -127q147 0 235 126.5t88 340.5q0 211 -88.5 338t-234.5 127 q-147 0 -236.5 -126.5t-89.5 -338.5z" />
<glyph unicode="R" horiz-adv-x="1346" d="M137 0v1421h565q282 0 418.5 -91.5t136.5 -278.5q0 -138 -72 -227t-208 -119q112 -41 180 -233v-1l170 -471h-395l-125 389q-30 94 -82 130t-162 36h-55v-555h-371zM508 807h133q123 0 184.5 44.5t61.5 133.5q0 96 -68.5 141t-216.5 45h-94v-364z" />
<glyph unicode="S" horiz-adv-x="1229" d="M100 1012q0 214 153 329t439 115q105 0 202 -12.5t187 -38.5l-28 -293q-87 37 -167 55.5t-155 18.5q-115 0 -179.5 -36.5t-64.5 -100.5q0 -45 33 -78.5t99 -55.5q22 -7 63 -20q244 -79 324 -139q75 -58 110 -132.5t35 -174.5q0 -235 -156 -358.5t-452 -123.5 q-107 0 -214.5 15t-213.5 45l32 317q100 -45 194.5 -68.5t178.5 -23.5q112 0 177 42t65 114q0 89 -208 161q-50 17 -77 27q-203 73 -290 169.5t-87 246.5z" />
<glyph unicode="T" horiz-adv-x="1133" d="M25 1137v284h1083v-284h-352v-1137h-379v1137h-352z" />
<glyph unicode="U" horiz-adv-x="1479" d="M133 594v827h379v-827q0 -182 54 -263t173 -81q122 0 184 87t62 257v827h361v-827q0 -314 -151.5 -470.5t-455.5 -156.5q-301 0 -453.5 157.5t-152.5 469.5z" />
<glyph unicode="V" horiz-adv-x="1436" d="M18 1421h396l317 -1106l313 1106h388l-482 -1421h-475z" />
<glyph unicode="W" horiz-adv-x="2019" d="M20 1421h379l160 -978q5 -46 11.5 -103.5t13.5 -121.5q2 60 8 115.5t14 104.5l166 983h477l176 -979q9 -41 16 -98.5t13 -125.5q9 110 13.5 150.5t9.5 66.5l165 986h355l-307 -1421h-484l-184 1014q-5 25 -11 86.5t-12 148.5q-6 -99 -10.5 -157t-7.5 -76l-172 -1016h-479 z" />
<glyph unicode="X" horiz-adv-x="1413" d="M2 0l479 745l-430 676h436l240 -501l229 501h408l-426 -676l477 -745h-446l-273 551l-278 -551h-416z" />
<glyph unicode="Y" horiz-adv-x="1294" d="M-55 1421h430l284 -600l283 600h408l-516 -889v-532h-379v528z" />
<glyph unicode="Z" horiz-adv-x="1251" d="M94 0v317l705 830h-684v274h1079v-301l-715 -846h715v-274h-1100z" />
<glyph unicode="[" horiz-adv-x="819" d="M197 -270v1816h524v-223h-229v-1370h229v-223h-524z" />
<glyph unicode="\" horiz-adv-x="569" d="M-51 1456h227l492 -1646h-222z" />
<glyph unicode="]" horiz-adv-x="819" d="M100 -47h230v1370h-230v223h523v-1816h-523v223z" />
<glyph unicode="^" horiz-adv-x="2048" d="M414 899l465 563h288l465 -563h-264l-344 342l-346 -342h-264z" />
<glyph unicode="_" d="M0 -244h1024v-239h-1024v239z" />
<glyph unicode="`" d="M207 1563h287l192 -371h-154z" />
<glyph unicode="a" horiz-adv-x="1239" d="M76 322q0 175 138 259.5t425 84.5h141v14q0 86 -66 132t-192 46q-62 0 -141 -22t-170 -64l-6 238q88 37 190.5 55t225.5 18q258 0 378.5 -128.5t120.5 -403.5v-551h-313l-8 164q-64 -91 -154.5 -133.5t-218.5 -42.5q-160 0 -255 91t-95 243zM420 334q0 -55 37.5 -89 t99.5 -34q98 0 160.5 66t62.5 172v30h-61q-159 0 -229 -34.5t-70 -110.5z" />
<glyph unicode="b" horiz-adv-x="1399" d="M133 0v1536h361v-629q63 88 148.5 131t197.5 43q212 0 338.5 -146.5t126.5 -393.5q0 -250 -130 -403.5t-339 -153.5q-125 0 -222.5 58t-158.5 169v-211h-322zM494 535q0 -133 60 -208t165 -75q99 0 158 73.5t59 196.5q0 132 -58.5 213.5t-150.5 81.5q-107 0 -170 -76 t-63 -206z" />
<glyph unicode="c" horiz-adv-x="1067" d="M78 524q0 259 161 408t443 149q68 0 141.5 -13.5t153.5 -41.5l-25 -264q-53 29 -105 43t-104 14q-134 0 -213 -79t-79 -214q0 -132 84 -211t225 -79q59 0 113.5 15t105.5 46l8 -277q-69 -24 -152.5 -36.5t-181.5 -12.5q-256 0 -415.5 153t-159.5 400z" />
<glyph unicode="d" horiz-adv-x="1399" d="M92 541q0 247 126.5 393.5t338.5 146.5q111 0 198.5 -43.5t149.5 -130.5v629h361v-1536h-324v211q-61 -111 -159 -169t-222 -58q-210 0 -339.5 153t-129.5 404zM461 530q0 -128 59.5 -203t159.5 -75q104 0 163.5 75t59.5 208q0 129 -62.5 205.5t-168.5 76.5 q-92 0 -151.5 -80t-59.5 -207z" />
<glyph unicode="e" horiz-adv-x="1221" d="M76 545q0 246 149.5 391t403.5 145q256 0 395 -149t139 -424v-88h-739q11 -103 89 -159t210 -56q79 0 167 22t181 66v-258q-88 -32 -183.5 -48t-199.5 -16q-288 0 -450 152t-162 422zM420 633h424q-11 106 -68 166.5t-145 60.5q-87 0 -143 -60.5t-68 -166.5z" />
<glyph unicode="f" horiz-adv-x="891" d="M37 791v262h221v96q0 203 103.5 305t308.5 102q60 0 110 -6t94 -18l-22 -246q-22 10 -44.5 15.5t-45.5 5.5q-77 0 -112.5 -46t-35.5 -145v-63h252v-262h-252v-791h-356v791h-221z" />
<glyph unicode="g" horiz-adv-x="1374" d="M80 541q0 242 132.5 391t344.5 149q112 0 201.5 -49t161.5 -149v170h333v-912q0 -292 -156 -438.5t-466 -146.5q-117 0 -222.5 17t-199.5 52l20 269q86 -43 175.5 -65t175.5 -22q155 0 237 71.5t82 205.5v98q-70 -88 -157 -131t-197 -43q-208 0 -336.5 146.5 t-128.5 386.5zM457 545q0 -120 59 -192t156 -72t157 72.5t60 191.5t-60 192.5t-157 73.5t-156 -73t-59 -193z" />
<glyph unicode="h" horiz-adv-x="1360" d="M137 0v1536h361v-629q55 85 144.5 129.5t203.5 44.5q193 0 294 -118.5t101 -346.5v-616h-358v541q0 124 -44 184.5t-134 60.5q-94 0 -150.5 -76t-56.5 -204v-506h-361z" />
<glyph unicode="i" horiz-adv-x="639" d="M139 0v1053h361v-1053h-361zM139 1243v293h361v-293h-361z" />
<glyph unicode="j" horiz-adv-x="639" d="M-76 -423l10 232q11 -1 20.5 -1.5t29.5 -0.5q86 0 120.5 47t34.5 166v1033h361v-1053q0 -226 -93.5 -334t-287.5 -108q-49 0 -97.5 4.5t-97.5 14.5zM139 1243v293h361v-293h-361z" />
<glyph unicode="k" horiz-adv-x="1223" d="M137 0v1536h361v-913l282 430h396l-355 -459l389 -594h-428l-284 549v-549h-361z" />
<glyph unicode="l" horiz-adv-x="639" d="M139 0v1536h361v-1536h-361z" />
<glyph unicode="m" horiz-adv-x="2044" d="M137 0v1053h324v-189q60 104 155 159.5t209 55.5q121 0 210.5 -57t135.5 -164q62 107 157.5 164t211.5 57q186 0 284.5 -118.5t98.5 -344.5v-616h-356v541q0 123 -40.5 181t-125.5 58q-87 0 -139 -74t-52 -200v-506h-358v541q0 123 -40 181t-126 58q-87 0 -139.5 -74.5 t-52.5 -199.5v-506h-357z" />
<glyph unicode="n" horiz-adv-x="1360" d="M137 0v1053h328v-189q62 106 160 161.5t221 55.5q193 0 294 -118.5t101 -346.5v-616h-358v541q0 124 -44 184.5t-134 60.5q-94 0 -150.5 -76t-56.5 -204v-506h-361z" />
<glyph unicode="o" horiz-adv-x="1364" d="M76 526q0 261 160 408t444 147q285 0 445.5 -147t160.5 -408q0 -259 -160.5 -406t-445.5 -147q-284 0 -444 147t-160 406zM451 528q0 -134 63.5 -216.5t165.5 -82.5q104 0 166.5 81.5t62.5 217.5q0 137 -62.5 219t-166.5 82q-102 0 -165.5 -82.5t-63.5 -218.5z" />
<glyph unicode="p" horiz-adv-x="1399" d="M137 -428v1481h324v-201q62 111 159.5 170t219.5 59q213 0 343 -150t130 -399t-131.5 -405t-337.5 -156q-110 0 -196.5 44t-149.5 132v-575h-361zM498 526q0 -129 59 -204.5t160 -75.5q102 0 162.5 78t60.5 213q0 124 -59.5 199t-157.5 75q-105 0 -165 -76t-60 -209z" />
<glyph unicode="q" horiz-adv-x="1399" d="M86 532q0 250 129.5 399.5t341.5 149.5q123 0 221 -59t160 -170v201h322v-1481h-361v575q-63 -88 -149.5 -132t-196.5 -44q-207 0 -337 155.5t-130 405.5zM457 526q0 -127 61 -203.5t162 -76.5q100 0 159.5 75.5t59.5 204.5q0 133 -60 209t-165 76q-100 0 -158.5 -76.5 t-58.5 -208.5z" />
<glyph unicode="r" horiz-adv-x="893" d="M137 0v1053h322v-201q55 117 134 173t187 56q28 0 102 -11q5 -1 7 -1l-19 -311q-22 9 -49 13.5t-63 4.5q-129 0 -194.5 -83t-65.5 -244v-449h-361z" />
<glyph unicode="s" d="M88 733q0 165 130 256.5t366 91.5q77 0 158 -14t163 -41l-35 -254q-72 41 -145.5 62.5t-140.5 21.5q-66 0 -102 -23.5t-36 -66.5q0 -56 147 -96q46 -13 73 -21q168 -50 234.5 -122t66.5 -197q0 -167 -130 -263t-358 -96q-97 0 -191.5 15t-185.5 45l23 270 q76 -39 158 -59.5t166 -20.5q79 0 119 21.5t40 64.5q0 64 -162 112q-40 12 -63 19q-165 54 -230 120.5t-65 174.5z" />
<glyph unicode="t" horiz-adv-x="915" d="M33 793v260h223v243l340 115v-358h258v-260h-258v-363q0 -117 38 -165t130 -48q13 0 33 3.5t57 12.5l6 -235q-58 -13 -112.5 -20t-106.5 -7q-214 0 -309.5 105.5t-95.5 343.5v373h-203z" />
<glyph unicode="u" horiz-adv-x="1360" d="M117 446v607h360v-531q0 -124 44 -185t134 -61q102 0 154.5 83t52.5 243v451h361v-1053h-328v197q-62 -105 -159.5 -160t-221.5 -55q-194 0 -295.5 118.5t-101.5 345.5z" />
<glyph unicode="v" horiz-adv-x="1206" d="M18 1053h390l221 -727l223 727h362l-395 -1053h-407z" />
<glyph unicode="w" horiz-adv-x="1898" d="M29 1053h381l145 -662q7 -32 12 -68.5t8 -80.5q6 50 12 89t11 60l164 662h430l158 -676q7 -33 12.5 -67t7.5 -68q6 70 9 96.5t5 35.5l152 679h350l-321 -1053h-412l-172 700q-6 25 -9.5 59t-4.5 80q-7 -58 -11.5 -92.5t-7.5 -46.5l-180 -700h-416z" />
<glyph unicode="x" horiz-adv-x="1171" d="M-6 0l371 545l-332 508h416l159 -330l158 330h393l-338 -506l353 -547h-420l-172 354l-189 -354h-399z" />
<glyph unicode="y" horiz-adv-x="1225" d="M25 1053h389l233 -736l221 736h363l-412 -1028q-60 -150 -98 -220.5t-78 -111.5q-69 -71 -156 -105t-196 -34q-40 0 -88 4.5t-106 13.5l32 270q31 -10 60 -15t57 -5q74 0 126 34.5t89 108.5z" />
<glyph unicode="z" horiz-adv-x="1030" d="M80 0v303l502 488h-488v262h883v-279l-520 -514h520v-260h-897z" />
<glyph unicode="{" d="M152 410v241q6 0 18 -1t18 -1q118 0 168 55.5t50 188.5v254q0 136 24 193.5t82 89.5q48 25 120.5 37t180.5 12q12 0 38.5 -1t41.5 -1v-242q-7 0 -21 1t-20 1q-98 0 -132 -35.5t-34 -146.5v-240q0 -140 -46 -200t-165 -85q120 -24 165.5 -82.5t45.5 -199.5v-242 q0 -110 33.5 -145t130.5 -35q7 0 21.5 1t21.5 1v-242q-15 0 -42 -1t-40 -1q-108 0 -179.5 12t-119.5 37q-59 32 -82.5 88.5t-23.5 192.5v256q0 133 -49.5 187.5t-168.5 54.5q-4 0 -17 -1t-19 -1z" />
<glyph unicode="|" d="M393 -483v2048h240v-2048h-240z" />
<glyph unicode="}" d="M133 -172q9 0 23 -1t20 -1q97 0 130.5 34.5t33.5 145.5v242q0 140 46 199t165 83q-120 25 -165.5 84t-45.5 201v240q0 111 -33.5 146.5t-126.5 35.5q-7 0 -22.5 -1t-24.5 -1v242q15 0 41.5 1t38.5 1q108 0 180 -12t121 -37q58 -32 82.5 -89.5t24.5 -193.5v-254 q0 -134 49 -189t168 -55q6 0 18 1t18 1v-241q-6 0 -18 1t-18 1q-119 0 -168 -55t-49 -187v-256q0 -137 -24.5 -194.5t-82.5 -88.5q-45 -24 -113.5 -35.5t-177.5 -11.5q-14 0 -44 1t-46 1v242z" />
<glyph unicode="~" horiz-adv-x="1706" d="M178 401v254q112 73 207.5 108.5t179.5 35.5q63 0 126.5 -12t169.5 -46q16 -5 51 -17q159 -56 247 -56q84 0 173.5 36t197.5 115v-254q-101 -69 -194 -103t-183 -34q-45 0 -89 7.5t-83 21.5q-13 4 -38 13q-255 89 -382 89q-84 0 -175.5 -37.5t-207.5 -120.5z" />
<glyph unicode="&#xa1;" horiz-adv-x="877" d="M250 0l55 948h264l56 -948h-375zM270 1106v315h336v-315h-336z" />
<glyph unicode="&#xa2;" horiz-adv-x="1262" d="M168 555q0 258 161.5 411.5t432.5 153.5q27 0 59 -1.5t67 -4.5l77 248h125l-84 -272l69 -23l-31 -276q-28 15 -56 27t-58 22l-166 -543q30 -8 56 -12t50 -4q50 0 100.5 15t102.5 46v-287q-59 -25 -127.5 -38t-146.5 -13q-23 0 -53.5 1.5t-69.5 4.5l-86 -284h-123l94 315 q-185 44 -289 180.5t-104 333.5zM543 565q0 -68 28 -121.5t82 -89.5l158 498q-122 -12 -195 -90.5t-73 -196.5z" />
<glyph unicode="&#xa3;" horiz-adv-x="1262" d="M147 0v270h195v396h-164v184h164v45q0 273 143 417t414 144q58 0 122.5 -8.5t137.5 -26.5l-12 -266q-40 16 -84 24.5t-92 8.5q-135 0 -207 -81t-72 -233v-24h299v-184h-299v-396h449v-270h-994z" />
<glyph unicode="&#xa4;" horiz-adv-x="1241" d="M61 444l201 203q-36 54 -54 113t-18 125q0 67 18.5 126.5t53.5 110.5l-201 205l117 117l203 -201q54 37 113.5 55.5t126.5 18.5q69 0 130 -18.5t113 -55.5l201 201l119 -117l-201 -205q35 -53 52.5 -112t17.5 -125t-17.5 -125.5t-52.5 -112.5l201 -203l-119 -118 l-201 202q-52 -37 -111.5 -55t-129.5 -18t-128.5 17.5t-113.5 55.5l-203 -202zM362 885q0 -108 76 -184t185 -76q107 0 183.5 76t76.5 184q0 106 -76.5 183t-183.5 77t-184 -77t-77 -183z" />
<glyph unicode="&#xa5;" horiz-adv-x="1262" d="M-45 1421h379l309 -657l307 657h359l-283 -487h162v-143h-248l-96 -170h344v-142h-395v-479h-330v479h-397v142h344l-97 170h-247v143h165z" />
<glyph unicode="&#xa6;" d="M393 -350v758h240v-758h-240zM393 674v758h240v-758h-240z" />
<glyph unicode="&#xa7;" d="M53 610q0 82 43.5 148.5t132.5 122.5q-73 46 -109 104.5t-36 132.5q0 158 122.5 248t338.5 90q89 0 189.5 -15.5t205.5 -45.5l-29 -244q-89 34 -174.5 52t-161.5 18q-72 0 -112.5 -26t-40.5 -71q0 -64 166 -136q54 -24 84 -38q197 -92 267.5 -172t70.5 -194 q0 -79 -38 -147t-114 -128q64 -56 94.5 -113.5t30.5 -121.5q0 -150 -130.5 -247t-336.5 -97q-115 0 -229 17t-230 52l29 262q91 -44 181.5 -67t172.5 -23q90 0 141.5 30.5t51.5 82.5q0 60 -173 137q-81 36 -128 60q-148 72 -213.5 150t-65.5 179zM340 668q0 -66 53.5 -114.5 t270.5 -143.5q33 41 48 74t15 63q0 56 -52 104t-259 152q-41 -44 -58.5 -75.5t-17.5 -59.5z" />
<glyph unicode="&#xa8;" d="M205 1241v270h250v-270h-250zM567 1241v270h252v-270h-252z" />
<glyph unicode="&#xa9;" horiz-adv-x="1706" d="M106 737q0 148 57.5 285t164.5 246q105 106 238 161.5t286 55.5q154 0 289.5 -56t242.5 -163q106 -106 160.5 -240.5t54.5 -288.5q0 -153 -54 -287t-159 -237q-109 -108 -247 -165.5t-287 -57.5q-148 0 -283.5 57t-242.5 164t-163.5 241.5t-56.5 284.5zM242 737 q0 -119 47 -230.5t135 -199.5q87 -87 198 -133.5t232 -46.5t234 47t202 135q86 84 130 193t44 235q0 125 -45 235.5t-131 196.5q-88 89 -198.5 135t-235.5 46q-126 0 -235 -45.5t-195 -133.5q-88 -89 -135 -201t-47 -233zM446 731q0 207 111 329t299 122q157 0 257 -80 t108 -211h-213q-7 67 -47.5 104t-108.5 37q-83 0 -129.5 -77t-46.5 -216q0 -140 47.5 -212t138.5 -72q67 0 106.5 40.5t45.5 114.5h215q-6 -143 -107.5 -230t-263.5 -87q-190 0 -301 117.5t-111 320.5z" />
<glyph unicode="&#xaa;" horiz-adv-x="930" d="M57 911q0 123 104 182.5t318 59.5h107v8q0 62 -49.5 93.5t-145.5 31.5q-49 0 -108.5 -15t-124.5 -44l-4 166q63 26 140 38.5t171 12.5q194 0 284.5 -90t90.5 -283v-385h-234l-6 115q-49 -64 -116 -93.5t-165 -29.5q-120 0 -191 63t-71 170zM315 920q0 -39 28.5 -62.5 t74.5 -23.5q74 0 121 46t47 119v23h-47q-120 0 -172 -24t-52 -78z" />
<glyph unicode="&#xab;" horiz-adv-x="1200" d="M59 543l236 418h299l-217 -418l213 -418h-297zM600 543l236 418h299l-217 -418l212 -418h-299z" />
<glyph unicode="&#xac;" horiz-adv-x="1706" d="M254 639v227h1198v-501h-229v274h-969z" />
<glyph unicode="&#xad;" horiz-adv-x="692" d="M72 459v270h546v-270h-546z" />
<glyph unicode="&#xae;" horiz-adv-x="1706" d="M106 737q0 151 59 290t169 247q105 104 237 157.5t281 53.5q156 0 294 -57.5t245 -167.5q101 -104 154.5 -238t53.5 -285q0 -155 -56.5 -291t-164.5 -239q-109 -105 -245 -161t-281 -56q-151 0 -287 58t-243 169q-105 108 -160.5 241.5t-55.5 278.5zM244 737 q0 -121 44 -229t130 -195q87 -90 199 -138t235 -48q121 0 232.5 45.5t199.5 130.5t134 196.5t46 237.5q0 124 -44 233.5t-128 194.5q-89 91 -200.5 138t-237.5 47q-124 0 -232 -44t-194 -128q-90 -90 -137 -203t-47 -238zM537 344v819h329q174 0 264.5 -60t90.5 -177 q0 -81 -46 -139t-128 -82l182 -361h-248l-154 326h-65v-326h-225zM762 803h80q74 0 110.5 26.5t36.5 79.5q0 59 -38 86t-122 27h-67v-219z" />
<glyph unicode="&#xaf;" d="M205 1292v168h614v-168h-614z" />
<glyph unicode="&#xb0;" horiz-adv-x="674" d="M27 1155q0 131 90.5 221t220.5 90q129 0 220 -91t91 -220q0 -128 -91.5 -219.5t-221.5 -91.5q-129 0 -219 90.5t-90 220.5zM172 1157q0 -70 48 -118t118 -48q68 0 116 49t48 117t-48 116t-116 48q-69 0 -117.5 -48t-48.5 -116z" />
<glyph unicode="&#xb1;" horiz-adv-x="1706" d="M254 -18v231h1198v-231h-1198zM254 690v232h481v319h238v-319h479v-232h-479v-319h-238v319h-481z" />
<glyph unicode="&#xb2;" horiz-adv-x="834" d="M82 569v164q226 169 318 266.5t92 163.5q0 51 -37 81t-99 30q-53 0 -113.5 -15.5t-129.5 -46.5l-9 177q76 26 154 39.5t160 13.5q142 0 231.5 -71t89.5 -183q0 -96 -86 -206t-274 -253h373v-160h-670z" />
<glyph unicode="&#xb3;" horiz-adv-x="834" d="M63 592l15 176q49 -22 105 -33.5t116 -11.5q92 0 144.5 29.5t52.5 81.5q0 46 -40 71t-116 25h-115v149h107q71 0 114 26.5t43 68.5q0 45 -44 71.5t-119 26.5q-53 0 -109.5 -9.5t-112.5 -27.5l-10 158q70 18 140.5 27.5t144.5 9.5q164 0 255 -61t91 -171q0 -69 -43.5 -116 t-126.5 -68q92 -23 139 -73.5t47 -125.5q0 -117 -115 -185.5t-315 -68.5q-62 0 -124.5 8t-123.5 23z" />
<glyph unicode="&#xb4;" d="M338 1192l192 371h287l-325 -371h-154z" />
<glyph unicode="&#xb5;" horiz-adv-x="1315" d="M-45 -428l238 1518h358l-80 -529q-6 -41 -9 -77.5t-3 -65.5q0 -85 35.5 -127.5t107.5 -42.5q88 0 138.5 68.5t74.5 220.5l88 553h357l-175 -1090h-321l18 125q-40 -75 -89.5 -108t-119.5 -33q-59 0 -106.5 31t-77.5 89l-82 -532h-352z" />
<glyph unicode="&#xb6;" d="M29 1130q0 158 106 253.5t283 95.5h579v-123h-106v-1356h-176v1356h-150v-1356h-174v784q-164 6 -263 101t-99 245z" />
<glyph unicode="&#xb7;" horiz-adv-x="631" d="M143 711q0 71 51 122.5t121 51.5q73 0 123.5 -51t50.5 -123q0 -71 -51.5 -121.5t-122.5 -50.5q-69 0 -120.5 51.5t-51.5 120.5z" />
<glyph unicode="&#xb8;" d="M272 -301q81 -22 151 -33.5t120 -11.5q43 0 64.5 17.5t21.5 54.5q0 32 -28.5 47.5t-90.5 15.5q-21 0 -33 -0.5t-22 -1.5v213h114v-84h19q111 0 170 -49.5t59 -142.5q0 -100 -66 -154.5t-188 -54.5q-58 0 -130 11.5t-161 35.5v137z" />
<glyph unicode="&#xb9;" horiz-adv-x="831" d="M84 1231l319 190h195v-852h-229v623l-174 -109z" />
<glyph unicode="&#xba;" d="M57 1055q0 182 120.5 285.5t332.5 103.5q213 0 334 -103.5t121 -285.5t-120.5 -284.5t-334.5 -102.5q-213 0 -333 102.5t-120 284.5zM338 1057q0 -94 48 -152.5t124 -58.5q78 0 125 57t47 154q0 95 -47 153t-125 58q-77 0 -124.5 -58t-47.5 -153z" />
<glyph unicode="&#xbb;" horiz-adv-x="1200" d="M63 125l218 418l-213 418h299l231 -418l-236 -418h-299zM604 125l217 418l-213 418h299l232 -418l-236 -418h-299z" />
<glyph unicode="&#xbc;" horiz-adv-x="1931" d="M80 1245l305 178h184v-796h-217v581l-166 -100zM483 -33l752 1489h213l-752 -1489h-213zM1171 154v176l355 467h264v-500h123v-143h-123v-154h-217v154h-402zM1333 297h240l12 348z" />
<glyph unicode="&#xbd;" horiz-adv-x="1931" d="M80 1245l305 178h184v-796h-217v581l-166 -100zM483 -33l752 1489h213l-752 -1489h-213zM1214 0v154q215 156 303.5 247t88.5 152q0 48 -35 76t-94 28q-53 0 -110.5 -14t-123.5 -43l-6 166q76 25 150 37t149 12q136 0 221.5 -66.5t85.5 -170.5q0 -90 -83 -193t-263 -235 h356v-150h-639z" />
<glyph unicode="&#xbe;" horiz-adv-x="1931" d="M61 647l13 166q48 -21 101.5 -32t109.5 -11q88 0 138 27.5t50 74.5q0 44 -37.5 67.5t-109.5 23.5h-111v139h100q69 0 110.5 25t41.5 65q0 41 -42.5 65.5t-113.5 24.5q-54 0 -107 -8.5t-104 -26.5l-10 148q68 17 136 26t136 9q156 0 243 -57t87 -159q0 -64 -41.5 -108 t-122.5 -66q88 -19 134.5 -66.5t46.5 -117.5q0 -109 -110 -172t-302 -63q-62 0 -120.5 6.5t-115.5 19.5zM483 -33l752 1489h213l-752 -1489h-213zM1171 154v176l355 467h264v-500h123v-143h-123v-154h-217v154h-402zM1333 297h240l12 348z" />
<glyph unicode="&#xbf;" horiz-adv-x="1141" d="M125 317q0 58 20 116t58 110q42 58 106.5 130.5t79.5 92.5q36 51 52 92.5t16 81.5v14h293q0 -6 1 -18t1 -18q0 -64 -20 -121t-62 -111q-23 -29 -66 -81q-117 -140 -117 -216t58 -119t160 -43q75 0 153 17t170 53l12 -272q-108 -30 -215 -45t-215 -15q-225 0 -355 95 t-130 257zM442 1106v315h336v-315h-336z" />
<glyph unicode="&#xc0;" horiz-adv-x="1446" d="M-35 0l539 1421h457l538 -1421h-405l-101 301h-547l-106 -301h-375zM418 1938h287l192 -371h-154zM541 571h362l-178 533z" />
<glyph unicode="&#xc1;" horiz-adv-x="1446" d="M-35 0l539 1421h457l538 -1421h-405l-101 301h-547l-106 -301h-375zM541 571h362l-178 533zM549 1567l192 371h287l-325 -371h-154z" />
<glyph unicode="&#xc2;" horiz-adv-x="1446" d="M-35 0l539 1421h457l538 -1421h-405l-101 301h-547l-106 -301h-375zM401 1567l193 371h256l192 -371h-153l-166 199l-168 -199h-154zM541 571h362l-178 533z" />
<glyph unicode="&#xc3;" horiz-adv-x="1446" d="M-35 0l539 1421h457l538 -1421h-405l-101 301h-547l-106 -301h-375zM391 1612q28 126 80.5 186t134.5 60q16 0 38 -4t52 -13l95 -26q12 -4 26 -6t31 -2q33 0 55 21.5t33 64.5h119q-30 -133 -82.5 -193.5t-136.5 -60.5q-23 0 -41.5 2.5t-34.5 7.5l-92 26q-30 9 -44.5 12 t-23.5 3q-34 0 -56 -19t-34 -59h-119zM541 571h362l-178 533z" />
<glyph unicode="&#xc4;" horiz-adv-x="1446" d="M-35 0l539 1421h457l538 -1421h-405l-101 301h-547l-106 -301h-375zM416 1616v270h250v-270h-250zM541 571h362l-178 533zM778 1616v270h252v-270h-252z" />
<glyph unicode="&#xc5;" horiz-adv-x="1446" d="M-35 0l539 1421h457l538 -1421h-405l-101 301h-547l-106 -301h-375zM461 1759q0 114 78.5 193.5t191.5 79.5t193 -80t80 -193q0 -114 -79 -192t-194 -78q-114 0 -192 78t-78 192zM541 571h362l-178 533zM616 1759q0 -48 33.5 -81t81.5 -33t81.5 33.5t33.5 80.5 q0 48 -33.5 81.5t-81.5 33.5q-47 0 -81 -33.5t-34 -81.5z" />
<glyph unicode="&#xc6;" horiz-adv-x="2015" d="M-55 0l753 1421h1190v-264h-583v-289h546v-270h-546v-324h608v-274h-969v295h-469l-143 -295h-387zM604 563h340v623h-39z" />
<glyph unicode="&#xc7;" horiz-adv-x="1399" d="M86 719q0 339 213 538t578 199q122 0 231.5 -19.5t202.5 -58.5l-33 -297q-80 48 -165 71.5t-175 23.5q-213 0 -339 -124t-126 -333q0 -210 128.5 -334.5t342.5 -124.5q84 0 171.5 20.5t176.5 61.5l23 -319q-102 -28 -204 -42t-206 -14q-387 0 -603 198.5t-216 553.5z M587 -301q81 -22 151 -33.5t120 -11.5q43 0 64.5 17.5t21.5 54.5q0 32 -28.5 47.5t-90.5 15.5q-21 0 -33 -0.5t-22 -1.5v213h114v-84h19q111 0 170 -49.5t59 -142.5q0 -100 -66 -154.5t-188 -54.5q-58 0 -130 11.5t-161 35.5v137z" />
<glyph unicode="&#xc8;" horiz-adv-x="1251" d="M137 0v1421h987v-266h-608v-287h574v-270h-574v-324h631v-274h-1010zM322 1938h287l192 -371h-154z" />
<glyph unicode="&#xc9;" horiz-adv-x="1251" d="M137 0v1421h987v-266h-608v-287h574v-270h-574v-324h631v-274h-1010zM453 1567l192 371h287l-325 -371h-154z" />
<glyph unicode="&#xca;" horiz-adv-x="1251" d="M137 0v1421h987v-266h-608v-287h574v-270h-574v-324h631v-274h-1010zM305 1567l193 371h256l192 -371h-153l-166 199l-168 -199h-154z" />
<glyph unicode="&#xcb;" horiz-adv-x="1251" d="M137 0v1421h987v-266h-608v-287h574v-270h-574v-324h631v-274h-1010zM320 1616v270h250v-270h-250zM682 1616v270h252v-270h-252z" />
<glyph unicode="&#xcc;" horiz-adv-x="653" d="M23 1938h287l192 -371h-154zM137 0v1421h379v-1421h-379z" />
<glyph unicode="&#xcd;" horiz-adv-x="653" d="M137 0v1421h379v-1421h-379zM154 1567l192 371h287l-325 -371h-154z" />
<glyph unicode="&#xce;" horiz-adv-x="653" d="M6 1567l193 371h256l192 -371h-153l-166 199l-168 -199h-154zM137 0v1421h379v-1421h-379z" />
<glyph unicode="&#xcf;" horiz-adv-x="653" d="M21 1616v270h250v-270h-250zM137 0v1421h379v-1421h-379zM383 1616v270h252v-270h-252z" />
<glyph unicode="&#xd0;" horiz-adv-x="1608" d="M47 633v203h137v585h498q195 0 326.5 -24.5t214.5 -75.5q155 -99 234 -250.5t79 -351.5q0 -220 -82.5 -374t-251.5 -253q-84 -48 -215 -70t-352 -22h-451v633h-137zM565 285h164q200 0 309 113t109 321q0 206 -113.5 317t-324.5 111h-144v-311h244v-203h-244v-348z" />
<glyph unicode="&#xd1;" horiz-adv-x="1575" d="M137 0v1421h473l412 -852q21 -43 49 -119.5t62 -187.5q-18 105 -26.5 193t-8.5 161v805h342v-1421h-471l-428 883q-30 61 -55 132.5t-46 155.5q20 -127 29.5 -233.5t9.5 -187.5v-750h-342zM456 1612q28 126 80.5 186t134.5 60q16 0 38 -4t52 -13l95 -26q12 -4 26 -6 t31 -2q33 0 55 21.5t33 64.5h119q-30 -133 -82.5 -193.5t-136.5 -60.5q-23 0 -41.5 2.5t-34.5 7.5l-92 26q-30 9 -44.5 12t-23.5 3q-34 0 -56 -19t-34 -59h-119z" />
<glyph unicode="&#xd2;" horiz-adv-x="1583" d="M86 711q0 350 187.5 547.5t519.5 197.5q331 0 517.5 -197.5t186.5 -547.5q0 -351 -186.5 -547.5t-517.5 -196.5q-333 0 -520 196.5t-187 547.5zM467 715q0 -213 89 -340t237 -127q147 0 235 126.5t88 340.5q0 211 -88.5 338t-234.5 127q-147 0 -236.5 -126.5 t-89.5 -338.5zM488 1938h287l192 -371h-154z" />
<glyph unicode="&#xd3;" horiz-adv-x="1583" d="M86 711q0 350 187.5 547.5t519.5 197.5q331 0 517.5 -197.5t186.5 -547.5q0 -351 -186.5 -547.5t-517.5 -196.5q-333 0 -520 196.5t-187 547.5zM467 715q0 -213 89 -340t237 -127q147 0 235 126.5t88 340.5q0 211 -88.5 338t-234.5 127q-147 0 -236.5 -126.5 t-89.5 -338.5zM619 1567l192 371h287l-325 -371h-154z" />
<glyph unicode="&#xd4;" horiz-adv-x="1583" d="M86 711q0 350 187.5 547.5t519.5 197.5q331 0 517.5 -197.5t186.5 -547.5q0 -351 -186.5 -547.5t-517.5 -196.5q-333 0 -520 196.5t-187 547.5zM467 715q0 -213 89 -340t237 -127q147 0 235 126.5t88 340.5q0 211 -88.5 338t-234.5 127q-147 0 -236.5 -126.5 t-89.5 -338.5zM471 1567l193 371h256l192 -371h-153l-166 199l-168 -199h-154z" />
<glyph unicode="&#xd5;" horiz-adv-x="1583" d="M86 711q0 350 187.5 547.5t519.5 197.5q331 0 517.5 -197.5t186.5 -547.5q0 -351 -186.5 -547.5t-517.5 -196.5q-333 0 -520 196.5t-187 547.5zM461 1612q28 126 80.5 186t134.5 60q16 0 38 -4t52 -13l95 -26q12 -4 26 -6t31 -2q33 0 55 21.5t33 64.5h119 q-30 -133 -82.5 -193.5t-136.5 -60.5q-23 0 -41.5 2.5t-34.5 7.5l-92 26q-30 9 -44.5 12t-23.5 3q-34 0 -56 -19t-34 -59h-119zM467 715q0 -213 89 -340t237 -127q147 0 235 126.5t88 340.5q0 211 -88.5 338t-234.5 127q-147 0 -236.5 -126.5t-89.5 -338.5z" />
<glyph unicode="&#xd6;" horiz-adv-x="1583" d="M86 711q0 350 187.5 547.5t519.5 197.5q331 0 517.5 -197.5t186.5 -547.5q0 -351 -186.5 -547.5t-517.5 -196.5q-333 0 -520 196.5t-187 547.5zM467 715q0 -213 89 -340t237 -127q147 0 235 126.5t88 340.5q0 211 -88.5 338t-234.5 127q-147 0 -236.5 -126.5 t-89.5 -338.5zM486 1616v270h250v-270h-250zM848 1616v270h252v-270h-252z" />
<glyph unicode="&#xd7;" horiz-adv-x="1706" d="M268 170l441 440l-441 443l162 161l440 -440l441 440l162 -161l-441 -443l441 -440l-162 -162l-441 441l-440 -441z" />
<glyph unicode="&#xd8;" horiz-adv-x="1583" d="M29 43l180 201q-61 91 -92 208.5t-31 260.5q0 350 187.5 546.5t519.5 196.5q123 0 230.5 -30t199.5 -91l178 195l153 -144l-182 -204q63 -90 94 -207t31 -264q0 -351 -186.5 -547.5t-517.5 -196.5q-132 0 -238.5 30t-189.5 91l-183 -194zM442 715q0 -52 5.5 -101 t15.5 -96l545 590q-51 44 -103.5 65t-111.5 21q-158 0 -254.5 -130.5t-96.5 -348.5zM580 322q41 -42 97 -65.5t116 -23.5q157 0 253.5 131.5t96.5 350.5q0 56 -5.5 103.5t-17.5 90.5z" />
<glyph unicode="&#xd9;" horiz-adv-x="1479" d="M133 594v827h379v-827q0 -182 54 -263t173 -81q122 0 184 87t62 257v827h361v-827q0 -314 -151.5 -470.5t-455.5 -156.5q-301 0 -453.5 157.5t-152.5 469.5zM434 1938h287l192 -371h-154z" />
<glyph unicode="&#xda;" horiz-adv-x="1479" d="M133 594v827h379v-827q0 -182 54 -263t173 -81q122 0 184 87t62 257v827h361v-827q0 -314 -151.5 -470.5t-455.5 -156.5q-301 0 -453.5 157.5t-152.5 469.5zM565 1567l192 371h287l-325 -371h-154z" />
<glyph unicode="&#xdb;" horiz-adv-x="1479" d="M133 594v827h379v-827q0 -182 54 -263t173 -81q122 0 184 87t62 257v827h361v-827q0 -314 -151.5 -470.5t-455.5 -156.5q-301 0 -453.5 157.5t-152.5 469.5zM417 1567l193 371h256l192 -371h-153l-166 199l-168 -199h-154z" />
<glyph unicode="&#xdc;" horiz-adv-x="1479" d="M133 594v827h379v-827q0 -182 54 -263t173 -81q122 0 184 87t62 257v827h361v-827q0 -314 -151.5 -470.5t-455.5 -156.5q-301 0 -453.5 157.5t-152.5 469.5zM432 1616v270h250v-270h-250zM794 1616v270h252v-270h-252z" />
<glyph unicode="&#xdd;" horiz-adv-x="1294" d="M-55 1421h430l284 -600l283 600h408l-516 -889v-532h-379v528zM473 1567l192 371h287l-325 -371h-154z" />
<glyph unicode="&#xde;" horiz-adv-x="1276" d="M137 0v1421h379v-174h129q298 0 441 -110.5t143 -341.5q0 -232 -141 -352.5t-410 -120.5h-162v-322h-379zM516 578h100q114 0 172 50t58 148q0 105 -58 160t-170 55h-102v-413z" />
<glyph unicode="&#xdf;" horiz-adv-x="1346" d="M137 0v1016q0 279 137.5 409.5t430.5 130.5q247 0 390.5 -113t143.5 -306q0 -129 -71.5 -214.5t-206.5 -117.5q166 -28 246.5 -121.5t80.5 -259.5q0 -205 -132.5 -320.5t-369.5 -115.5q-43 0 -91.5 3.5t-102.5 10.5l12 256q28 -4 52 -6t46 -2q101 0 161.5 58t60.5 155 q0 96 -65 148.5t-185 52.5h-27v259q121 3 180.5 53.5t59.5 149.5q0 88 -50 138.5t-137 50.5q-102 0 -152 -77.5t-50 -236.5v-1001h-361z" />
<glyph unicode="&#xe0;" horiz-adv-x="1239" d="M76 322q0 175 138 259.5t425 84.5h141v14q0 86 -66 132t-192 46q-62 0 -141 -22t-170 -64l-6 238q88 37 190.5 55t225.5 18q258 0 378.5 -128.5t120.5 -403.5v-551h-313l-8 164q-64 -91 -154.5 -133.5t-218.5 -42.5q-160 0 -255 91t-95 243zM316 1563h287l192 -371h-154z M420 334q0 -55 37.5 -89t99.5 -34q98 0 160.5 66t62.5 172v30h-61q-159 0 -229 -34.5t-70 -110.5z" />
<glyph unicode="&#xe1;" horiz-adv-x="1239" d="M76 322q0 175 138 259.5t425 84.5h141v14q0 86 -66 132t-192 46q-62 0 -141 -22t-170 -64l-6 238q88 37 190.5 55t225.5 18q258 0 378.5 -128.5t120.5 -403.5v-551h-313l-8 164q-64 -91 -154.5 -133.5t-218.5 -42.5q-160 0 -255 91t-95 243zM420 334q0 -55 37.5 -89 t99.5 -34q98 0 160.5 66t62.5 172v30h-61q-159 0 -229 -34.5t-70 -110.5zM447 1192l192 371h287l-325 -371h-154z" />
<glyph unicode="&#xe2;" horiz-adv-x="1239" d="M76 322q0 175 138 259.5t425 84.5h141v14q0 86 -66 132t-192 46q-62 0 -141 -22t-170 -64l-6 238q88 37 190.5 55t225.5 18q258 0 378.5 -128.5t120.5 -403.5v-551h-313l-8 164q-64 -91 -154.5 -133.5t-218.5 -42.5q-160 0 -255 91t-95 243zM299 1192l193 371h256 l192 -371h-153l-166 199l-168 -199h-154zM420 334q0 -55 37.5 -89t99.5 -34q98 0 160.5 66t62.5 172v30h-61q-159 0 -229 -34.5t-70 -110.5z" />
<glyph unicode="&#xe3;" horiz-adv-x="1239" d="M76 322q0 175 138 259.5t425 84.5h141v14q0 86 -66 132t-192 46q-62 0 -141 -22t-170 -64l-6 238q88 37 190.5 55t225.5 18q258 0 378.5 -128.5t120.5 -403.5v-551h-313l-8 164q-64 -91 -154.5 -133.5t-218.5 -42.5q-160 0 -255 91t-95 243zM289 1237q28 126 80.5 186 t134.5 60q16 0 38 -4t52 -13l95 -26q12 -4 26 -6t31 -2q33 0 55 21.5t33 64.5h119q-30 -133 -82.5 -193.5t-136.5 -60.5q-23 0 -41.5 2.5t-34.5 7.5l-92 26q-30 9 -44.5 12t-23.5 3q-34 0 -56 -19t-34 -59h-119zM420 334q0 -55 37.5 -89t99.5 -34q98 0 160.5 66t62.5 172v30 h-61q-159 0 -229 -34.5t-70 -110.5z" />
<glyph unicode="&#xe4;" horiz-adv-x="1239" d="M76 322q0 175 138 259.5t425 84.5h141v14q0 86 -66 132t-192 46q-62 0 -141 -22t-170 -64l-6 238q88 37 190.5 55t225.5 18q258 0 378.5 -128.5t120.5 -403.5v-551h-313l-8 164q-64 -91 -154.5 -133.5t-218.5 -42.5q-160 0 -255 91t-95 243zM314 1241v270h250v-270h-250z M420 334q0 -55 37.5 -89t99.5 -34q98 0 160.5 66t62.5 172v30h-61q-159 0 -229 -34.5t-70 -110.5zM676 1241v270h252v-270h-252z" />
<glyph unicode="&#xe5;" horiz-adv-x="1239" d="M76 322q0 175 138 259.5t425 84.5h141v14q0 86 -66 132t-192 46q-62 0 -141 -22t-170 -64l-6 238q88 37 190.5 55t225.5 18q258 0 378.5 -128.5t120.5 -403.5v-551h-313l-8 164q-64 -91 -154.5 -133.5t-218.5 -42.5q-160 0 -255 91t-95 243zM344 1419q0 114 78.5 192.5 t191.5 78.5q114 0 193.5 -79t79.5 -192q0 -114 -79 -193t-194 -79q-113 0 -191.5 78.5t-78.5 193.5zM418 330q0 -51 39 -85t100 -34q98 0 160.5 66t62.5 172v30h-69q-153 0 -223 -35.5t-70 -113.5zM502 1419q0 -48 33 -81t81 -33t81.5 33.5t33.5 80.5q0 48 -33.5 81.5 t-81.5 33.5q-47 0 -80.5 -33.5t-33.5 -81.5z" />
<glyph unicode="&#xe6;" horiz-adv-x="1933" d="M76 319q0 177 138 262t425 85h141v14q0 86 -66 132t-192 46q-62 0 -141 -22t-170 -64l-6 238q92 36 188 54.5t195 18.5q123 0 220 -36t163 -107q66 71 165.5 107t227.5 36q241 0 377.5 -152.5t136.5 -422.5v-88h-741q10 -102 89 -158.5t212 -56.5q78 0 165 22t181 66 v-258q-90 -32 -185.5 -48t-199.5 -16q-188 0 -307 62.5t-174 189.5q-73 -117 -189 -178t-266 -61q-182 0 -284.5 89t-102.5 246zM418 334q0 -54 39 -88.5t100 -34.5q98 0 160.5 66t62.5 172v30h-63q-157 0 -228 -34.5t-71 -110.5zM1135 633h421q-10 106 -66 165.5t-144 59.5 q-87 0 -143 -59.5t-68 -165.5z" />
<glyph unicode="&#xe7;" horiz-adv-x="1067" d="M78 524q0 259 161 408t443 149q68 0 141.5 -13.5t153.5 -41.5l-25 -264q-53 29 -105 43t-104 14q-134 0 -213 -79t-79 -214q0 -132 84 -211t225 -79q59 0 113.5 15t105.5 46l8 -277q-69 -24 -152.5 -36.5t-181.5 -12.5q-256 0 -415.5 153t-159.5 400zM368 -301 q81 -22 151 -33.5t120 -11.5q43 0 64.5 17.5t21.5 54.5q0 32 -28.5 47.5t-90.5 15.5q-21 0 -33 -0.5t-22 -1.5v213h114v-84h19q111 0 170 -49.5t59 -142.5q0 -100 -66 -154.5t-188 -54.5q-58 0 -130 11.5t-161 35.5v137z" />
<glyph unicode="&#xe8;" horiz-adv-x="1221" d="M76 545q0 246 149.5 391t403.5 145q256 0 395 -149t139 -424v-88h-739q11 -103 89 -159t210 -56q79 0 167 22t181 66v-258q-88 -32 -183.5 -48t-199.5 -16q-288 0 -450 152t-162 422zM332 1563h287l192 -371h-154zM420 633h424q-11 106 -68 166.5t-145 60.5 q-87 0 -143 -60.5t-68 -166.5z" />
<glyph unicode="&#xe9;" horiz-adv-x="1221" d="M76 545q0 246 149.5 391t403.5 145q256 0 395 -149t139 -424v-88h-739q11 -103 89 -159t210 -56q79 0 167 22t181 66v-258q-88 -32 -183.5 -48t-199.5 -16q-288 0 -450 152t-162 422zM420 633h424q-11 106 -68 166.5t-145 60.5q-87 0 -143 -60.5t-68 -166.5zM463 1192 l192 371h287l-325 -371h-154z" />
<glyph unicode="&#xea;" horiz-adv-x="1221" d="M76 545q0 246 149.5 391t403.5 145q256 0 395 -149t139 -424v-88h-739q11 -103 89 -159t210 -56q79 0 167 22t181 66v-258q-88 -32 -183.5 -48t-199.5 -16q-288 0 -450 152t-162 422zM315 1192l193 371h256l192 -371h-153l-166 199l-168 -199h-154zM420 633h424 q-11 106 -68 166.5t-145 60.5q-87 0 -143 -60.5t-68 -166.5z" />
<glyph unicode="&#xeb;" horiz-adv-x="1221" d="M76 545q0 246 149.5 391t403.5 145q256 0 395 -149t139 -424v-88h-739q11 -103 89 -159t210 -56q79 0 167 22t181 66v-258q-88 -32 -183.5 -48t-199.5 -16q-288 0 -450 152t-162 422zM330 1241v270h250v-270h-250zM420 633h424q-11 106 -68 166.5t-145 60.5 q-87 0 -143 -60.5t-68 -166.5zM692 1241v270h252v-270h-252z" />
<glyph unicode="&#xec;" horiz-adv-x="639" d="M14 1563h287l192 -371h-154zM139 0v1053h361v-1053h-361z" />
<glyph unicode="&#xed;" horiz-adv-x="639" d="M139 0v1053h361v-1053h-361zM145 1192l192 371h287l-325 -371h-154z" />
<glyph unicode="&#xee;" horiz-adv-x="639" d="M-3 1192l193 371h256l192 -371h-153l-166 199l-168 -199h-154zM139 0v1053h361v-1053h-361z" />
<glyph unicode="&#xef;" horiz-adv-x="639" d="M12 1241v270h250v-270h-250zM139 0v1053h361v-1053h-361zM374 1241v270h252v-270h-252z" />
<glyph unicode="&#xf0;" horiz-adv-x="1364" d="M109 498q0 241 149 384.5t399 143.5q35 0 69 -3.5t68 -10.5q-32 57 -62.5 103.5t-57.5 80.5l-219 -104l-74 145l192 94q-39 47 -91.5 96.5t-121.5 104.5h312q22 -25 48.5 -50.5t55.5 -51.5l209 102l84 -143l-186 -89q188 -216 280 -414.5t92 -387.5q0 -247 -152 -387 t-421 -140t-421 140t-152 387zM463 500q0 -127 61 -206t158 -79q98 0 157.5 78t59.5 207q0 130 -59.5 208t-157.5 78t-158.5 -79t-60.5 -207z" />
<glyph unicode="&#xf1;" horiz-adv-x="1360" d="M137 0v1053h328v-189q62 106 160 161.5t221 55.5q193 0 294 -118.5t101 -346.5v-616h-358v541q0 124 -44 184.5t-134 60.5q-94 0 -150.5 -76t-56.5 -204v-506h-361zM370 1237q28 126 80.5 186t134.5 60q16 0 38 -4t52 -13l95 -26q12 -4 26 -6t31 -2q33 0 55 21.5t33 64.5 h119q-30 -133 -82.5 -193.5t-136.5 -60.5q-23 0 -41.5 2.5t-34.5 7.5l-92 26q-30 9 -44.5 12t-23.5 3q-34 0 -56 -19t-34 -59h-119z" />
<glyph unicode="&#xf2;" horiz-adv-x="1364" d="M76 526q0 261 160 408t444 147q285 0 445.5 -147t160.5 -408q0 -259 -160.5 -406t-445.5 -147q-284 0 -444 147t-160 406zM377 1563h287l192 -371h-154zM451 528q0 -134 63.5 -216.5t165.5 -82.5q104 0 166.5 81.5t62.5 217.5q0 137 -62.5 219t-166.5 82 q-102 0 -165.5 -82.5t-63.5 -218.5z" />
<glyph unicode="&#xf3;" horiz-adv-x="1364" d="M76 526q0 261 160 408t444 147q285 0 445.5 -147t160.5 -408q0 -259 -160.5 -406t-445.5 -147q-284 0 -444 147t-160 406zM451 528q0 -134 63.5 -216.5t165.5 -82.5q104 0 166.5 81.5t62.5 217.5q0 137 -62.5 219t-166.5 82q-102 0 -165.5 -82.5t-63.5 -218.5zM508 1192 l192 371h287l-325 -371h-154z" />
<glyph unicode="&#xf4;" horiz-adv-x="1364" d="M76 526q0 261 160 408t444 147q285 0 445.5 -147t160.5 -408q0 -259 -160.5 -406t-445.5 -147q-284 0 -444 147t-160 406zM360 1192l193 371h256l192 -371h-153l-166 199l-168 -199h-154zM451 528q0 -134 63.5 -216.5t165.5 -82.5q104 0 166.5 81.5t62.5 217.5 q0 137 -62.5 219t-166.5 82q-102 0 -165.5 -82.5t-63.5 -218.5z" />
<glyph unicode="&#xf5;" horiz-adv-x="1364" d="M76 526q0 261 160 408t444 147q285 0 445.5 -147t160.5 -408q0 -259 -160.5 -406t-445.5 -147q-284 0 -444 147t-160 406zM350 1237q28 126 80.5 186t134.5 60q16 0 38 -4t52 -13l95 -26q12 -4 26 -6t31 -2q33 0 55 21.5t33 64.5h119q-30 -133 -82.5 -193.5t-136.5 -60.5 q-23 0 -41.5 2.5t-34.5 7.5l-92 26q-30 9 -44.5 12t-23.5 3q-34 0 -56 -19t-34 -59h-119zM451 528q0 -134 63.5 -216.5t165.5 -82.5q104 0 166.5 81.5t62.5 217.5q0 137 -62.5 219t-166.5 82q-102 0 -165.5 -82.5t-63.5 -218.5z" />
<glyph unicode="&#xf6;" horiz-adv-x="1364" d="M76 526q0 261 160 408t444 147q285 0 445.5 -147t160.5 -408q0 -259 -160.5 -406t-445.5 -147q-284 0 -444 147t-160 406zM375 1241v270h250v-270h-250zM451 528q0 -134 63.5 -216.5t165.5 -82.5q104 0 166.5 81.5t62.5 217.5q0 137 -62.5 219t-166.5 82 q-102 0 -165.5 -82.5t-63.5 -218.5zM737 1241v270h252v-270h-252z" />
<glyph unicode="&#xf7;" horiz-adv-x="1706" d="M254 496v231h1198v-231h-1198zM688 205q0 68 49 117t117 49t116 -48.5t48 -117.5q0 -68 -47.5 -116t-116.5 -48t-117.5 48t-48.5 116zM688 1016q0 68 49 117t117 49q67 0 115.5 -49t48.5 -117t-48.5 -116t-117.5 -48t-116.5 48t-47.5 116z" />
<glyph unicode="&#xf8;" horiz-adv-x="1364" d="M55 29l135 143q-57 70 -85.5 158.5t-28.5 195.5q0 261 160 408t444 147q94 0 176 -17t154 -52l153 157l146 -139l-138 -143q58 -72 86.5 -162t28.5 -199q0 -259 -160.5 -406t-445.5 -147q-97 0 -178.5 17t-149.5 51l-149 -156zM428 532q0 -22 3.5 -48t10.5 -62l373 381 q-34 22 -67.5 32.5t-67.5 10.5q-111 0 -181.5 -88t-70.5 -226zM547 258q32 -22 64 -32.5t69 -10.5q117 0 186.5 89.5t69.5 242.5q0 17 -3 36.5t-11 55.5z" />
<glyph unicode="&#xf9;" horiz-adv-x="1360" d="M117 446v607h360v-531q0 -124 44 -185t134 -61q102 0 154.5 83t52.5 243v451h361v-1053h-328v197q-62 -105 -159.5 -160t-221.5 -55q-194 0 -295.5 118.5t-101.5 345.5zM375 1563h287l192 -371h-154z" />
<glyph unicode="&#xfa;" horiz-adv-x="1360" d="M117 446v607h360v-531q0 -124 44 -185t134 -61q102 0 154.5 83t52.5 243v451h361v-1053h-328v197q-62 -105 -159.5 -160t-221.5 -55q-194 0 -295.5 118.5t-101.5 345.5zM506 1192l192 371h287l-325 -371h-154z" />
<glyph unicode="&#xfb;" horiz-adv-x="1360" d="M117 446v607h360v-531q0 -124 44 -185t134 -61q102 0 154.5 83t52.5 243v451h361v-1053h-328v197q-62 -105 -159.5 -160t-221.5 -55q-194 0 -295.5 118.5t-101.5 345.5zM358 1192l193 371h256l192 -371h-153l-166 199l-168 -199h-154z" />
<glyph unicode="&#xfc;" horiz-adv-x="1360" d="M117 446v607h360v-531q0 -124 44 -185t134 -61q102 0 154.5 83t52.5 243v451h361v-1053h-328v197q-62 -105 -159.5 -160t-221.5 -55q-194 0 -295.5 118.5t-101.5 345.5zM373 1241v270h250v-270h-250zM735 1241v270h252v-270h-252z" />
<glyph unicode="&#xfd;" horiz-adv-x="1225" d="M25 1053h389l233 -736l221 736h363l-412 -1028q-60 -150 -98 -220.5t-78 -111.5q-69 -71 -156 -105t-196 -34q-40 0 -88 4.5t-106 13.5l32 270q31 -10 60 -15t57 -5q74 0 126 34.5t89 108.5zM438 1192l192 371h287l-325 -371h-154z" />
<glyph unicode="&#xfe;" horiz-adv-x="1399" d="M137 -428v1964h361v-633q58 87 146.5 132.5t195.5 45.5q213 0 343 -150t130 -399t-131.5 -405t-337.5 -156q-110 0 -196.5 44t-149.5 132v-575h-361zM498 526q0 -129 59 -204.5t160 -75.5q102 0 162.5 78t60.5 213q0 124 -59.5 199t-157.5 75q-105 0 -165 -76t-60 -209z " />
<glyph unicode="&#xff;" horiz-adv-x="1225" d="M25 1053h389l233 -736l221 736h363l-412 -1028q-60 -150 -98 -220.5t-78 -111.5q-69 -71 -156 -105t-196 -34q-40 0 -88 4.5t-106 13.5l32 270q31 -10 60 -15t57 -5q74 0 126 34.5t89 108.5zM305 1241v270h250v-270h-250zM667 1241v270h252v-270h-252z" />
<glyph unicode="&#x152;" horiz-adv-x="2126" d="M86 711q0 362 185.5 548.5t545.5 186.5q79 0 248.5 -12.5t259.5 -12.5h674v-264h-584v-289h549v-270h-549v-324h608v-274h-759q-108 0 -272 -10t-220 -10q-327 0 -506.5 190.5t-179.5 540.5zM467 715q0 -228 94 -348.5t270 -120.5q41 0 95.5 6.5t120.5 19.5v881 q-60 14 -114 21.5t-99 7.5q-179 0 -273 -119.5t-94 -347.5z" />
<glyph unicode="&#x153;" horiz-adv-x="2052" d="M76 526q0 261 160 408t444 147q129 0 231.5 -35.5t175.5 -105.5q66 72 163 106.5t231 34.5q242 0 379 -152t137 -421v-88h-742q11 -103 89 -159t210 -56q79 0 167 22t182 66v-258q-88 -32 -182 -48t-195 -16q-156 0 -267.5 38.5t-177.5 115.5q-81 -76 -187 -115t-235 -39 q-267 0 -425 150.5t-158 404.5zM451 528q0 -134 63.5 -216.5t165.5 -82.5q104 0 166.5 81.5t62.5 217.5q0 137 -62.5 219t-166.5 82q-102 0 -165.5 -83t-63.5 -218zM1253 633h422q-10 107 -66.5 167t-144.5 60q-86 0 -142.5 -60.5t-68.5 -166.5z" />
<glyph unicode="&#x178;" horiz-adv-x="1294" d="M-55 1421h430l284 -600l283 600h408l-516 -889v-532h-379v528zM340 1616v270h250v-270h-250zM702 1616v270h252v-270h-252z" />
<glyph unicode="&#x2c6;" d="M190 1192l193 371h256l192 -371h-153l-166 199l-168 -199h-154z" />
<glyph unicode="&#x2dc;" d="M180 1237q28 126 80.5 186t134.5 60q16 0 38 -4t52 -13l95 -26q12 -4 26 -6t31 -2q33 0 55 21.5t33 64.5h119q-30 -133 -82.5 -193.5t-136.5 -60.5q-23 0 -41.5 2.5t-34.5 7.5l-92 26q-30 9 -44.5 12t-23.5 3q-34 0 -56 -19t-34 -59h-119z" />
<glyph unicode="&#x2000;" horiz-adv-x="1016" />
<glyph unicode="&#x2001;" horiz-adv-x="2032" />
<glyph unicode="&#x2002;" horiz-adv-x="1016" />
<glyph unicode="&#x2003;" horiz-adv-x="2032" />
<glyph unicode="&#x2004;" horiz-adv-x="677" />
<glyph unicode="&#x2005;" horiz-adv-x="508" />
<glyph unicode="&#x2006;" horiz-adv-x="338" />
<glyph unicode="&#x2007;" horiz-adv-x="338" />
<glyph unicode="&#x2008;" horiz-adv-x="254" />
<glyph unicode="&#x2009;" horiz-adv-x="406" />
<glyph unicode="&#x200a;" horiz-adv-x="112" />
<glyph unicode="&#x2010;" horiz-adv-x="692" d="M72 459v270h546v-270h-546z" />
<glyph unicode="&#x2011;" horiz-adv-x="692" d="M72 459v270h546v-270h-546z" />
<glyph unicode="&#x2012;" horiz-adv-x="692" d="M72 459v270h546v-270h-546z" />
<glyph unicode="&#x2013;" d="M0 496v198h1024v-198h-1024z" />
<glyph unicode="&#x2014;" horiz-adv-x="2048" d="M0 496v198h2048v-198h-2048z" />
<glyph unicode="&#x2018;" horiz-adv-x="631" d="M90 874l201 547h270l-131 -547h-340z" />
<glyph unicode="&#x2019;" horiz-adv-x="631" d="M106 877l132 544h337l-198 -544h-271z" />
<glyph unicode="&#x201a;" horiz-adv-x="631" d="M51 -223l131 547h340l-200 -547h-271z" />
<glyph unicode="&#x201c;" horiz-adv-x="1147" d="M90 874l201 547h270l-131 -547h-340zM608 874l199 547h270l-131 -547h-338z" />
<glyph unicode="&#x201d;" horiz-adv-x="1147" d="M106 877l132 544h337l-198 -544h-271zM623 877l133 544h338l-201 -544h-270z" />
<glyph unicode="&#x201e;" horiz-adv-x="1147" d="M51 -223l131 547h340l-200 -547h-271zM567 -223l133 547h338l-200 -547h-271z" />
<glyph unicode="&#x2022;" horiz-adv-x="1208" d="M307 762q0 123 87 209t210 86q122 0 208.5 -86.5t86.5 -208.5t-87.5 -209.5t-209.5 -87.5q-123 0 -209 87t-86 210z" />
<glyph unicode="&#x2026;" horiz-adv-x="2048" d="M174 0v326h334v-326h-334zM856 0v326h334v-326h-334zM1540 0v326h334v-326h-334z" />
<glyph unicode="&#x202f;" horiz-adv-x="406" />
<glyph unicode="&#x2039;" horiz-adv-x="659" d="M59 543l236 418h299l-217 -418l213 -418h-297z" />
<glyph unicode="&#x203a;" horiz-adv-x="659" d="M63 125l218 418l-213 418h299l231 -418l-236 -418h-299z" />
<glyph unicode="&#x205f;" horiz-adv-x="508" />
<glyph unicode="&#x2122;" horiz-adv-x="1706" d="M188 1337v127h502v-127h-164v-424h-174v424h-164zM797 913v551h223l113 -303l114 303h221v-551h-155v390l-146 -390h-65l-150 390v-390h-155z" />
<glyph unicode="&#xe000;" horiz-adv-x="1055" d="M0 0v1055h1055v-1055h-1055z" />
</font>
</defs>
</svg>
